[ Сегодня идет свободное скачивание без начисления Download ]


Статистика раздачи
Нет
 
   
 
 
 
 
-Сражение за тяжёлую воду- Информация о фильме:
Название: Сражение за тяжёлую воду
Оригинальное название: Kampen om tungtvannet
Год выхода: 2015
Жанр: драма, военный, история
Режиссер: Пер-Олав Соренсен
В ролях: Андреас Дёлер, Роберт Хунгер-Бюлер, Марк Беньямин Пух, Кристоф Бах, Пери Баумейстер, Эспен Ребол Бьерке, Торстейн Бьёрклунд, Оле Кристоффер Эртвог, Ейрик Эвьен
Описание фильма:
Сериал рассказывает о тревожных днях во времена Второй Мировой Войны. В центре сюжета - создание атомной бомбы в Германии. Нобелевский Лауреат по физике Вернер Гейзенберг должен по приказу верховного командования создать атомную бомбу для нацистов. Ученый узнал, что для ее производства нужна так называемая тяжелая вода, которая массово производится в городе Рьюкан,что в Норвегии. О планах нацистской Германии узнают союзные страны. Они решают отправить свою диверсионную группу в Рьюкан для уничтожения завода по производству тяжелой воды, а также для захвата парома, который ее транспортирует из губернии Телемарк. История показана с четырёх точек зрения - немецкой, союзников по антигитлеровской коалиции, команды диверсантов, а также со стороны компании «Norsk Hydro», владеющей заводом.

Страна: Норвегия
Продолжительность: ~ 00:45:00 серия
Перевод: Авторский (одноголосый, закадровый) - Дмитрий Есарев
Информация о файле:
Кодек: XviD
Формат: AVI
Качество: HDRip
Видео: ~ 2000 kbps, 720x400 (16:9), 25,000 fps
Аудио RU: AC3, 2 ch, 192 kbps
Субтитры: отсутствуют

MediaInfo:

General
Complete name : C:\Users\user\Downloads\Сражение за тяжёлую воду\Srajeniye.za.vodu.Ep02.Esarev.HDRip.avi
Format : AVI
Format/Info : Audio Video Interleave
File size : 700 MiB
Duration : 43 min 59 s
Overall bit rate : 2 225 kb/s
Writing application : VirtualDubMod 1.5.10.2 (build 2540/release)
Writing library : VirtualDubMod build 2540/release
Video
ID : 0
Format : MPEG-4 Visual
Format profile : Advanced Simple@L5
Format settings, BVOP : 2
Format settings, QPel : No
Format settings, GMC : No warppoints
Format settings, Matrix : Default (MPEG)
Codec ID : XVID
Codec ID/Hint : XviD
Duration : 43 min 59 s
Bit rate : 2 023 kb/s
Width : 720 pixels
Height : 400 pixels
Display aspect ratio : 16:9
Frame rate : 25.000 FPS
Color space : YUV
Chroma subsampling : 4:2:0
Bit depth : 8 bits
Scan type : Progressive
Compression mode : Lossy
Bits/(Pixel*Frame) : 0.281
Stream size : 637 MiB (91%)
Writing library : XviD 1.2.1 (UTC 2008-12-04)
Audio
ID : 1
Format : AC-3
Format/Info : Audio Coding 3
Format settings, Endianness : Big
Codec ID : 2000
Duration : 43 min 59 s
Bit rate mode : Constant
Bit rate : 192 kb/s
Channel(s) : 2 channels
Channel positions : Front: L R
Sampling rate : 48.0 kHz
Frame rate : 31.250 FPS (1536 spf)
Bit depth : 16 bits
Compression mode : Lossy
Stream size : 60.4 MiB (9%)
Alignment : Split accross interleaves
Interleave, duration : 40 ms (1.00 video frame)
Interleave, preload duratio : 500 ms
Service kind : Complete Main

Скриншоты

[Цитировать]



Показать сообщения:    

Текущее время: 16-Дек 17:55

Часовой пояс: UTC + 6


Вы не можете начинать темы
Вы не можете отвечать на сообщения
Вы не можете редактировать свои сообщения
Вы не можете удалять свои сообщения
Вы не можете голосовать в опросах
Вы не можете прикреплять файлы к сообщениям
Вы не можете скачивать файлы

!ВНИМАНИЕ!
Сайт не предоставляет электронные версии произведений, а занимается лишь коллекционированием и каталогизацией ссылок, присылаемых и публикуемых на форуме нашими читателями. Если вы являетесь правообладателем какого-либо представленного материала и не желаете, чтобы ссылка на него находилась в нашем каталоге, свяжитесь с нами, и мы незамедлительно удалим ее. Файлы для обмена на трекере предоставлены пользователями сайта, и администрация не несет ответственности за их содержание. Просьба не заливать файлы, защищенные авторскими правами, а также файлы нелегального содержания!