[ Сегодня идет свободное скачивание без начисления Download ]


Статистика раздачи
Качаю: [ 2 ]
Скачал: [ 4 ]
 
   
 
 
 
 
Виктор Королев - На сердце белыми нитями (2018) - Год: 2018
Жанр: Шансон
Издание: United Music Grup UMG 18 CD-1163
Источник (релизер): eloychik ®
Продолжительность: 00:59:53
Кодек: FLAC
Битрейт: Lossless
Тип рипа: image + .cue
Треклист:
01. Хочу тебя как весны
02. На сердце белыми нитями
03. Давай под капучино!
04. Миллион
05. Вишенка на торте
06. Стервочка моя
07. Дай мне слово
08. Любовь дороже всего
09. Ты очень красива
10. Букет из белых роз
11. Красивые слова
12. А я зову тебя любимой
13. Я брошу жизнь свою к твоим ногам
14. Тонкий лед

Отчёт ЕАС:

Exact Audio Copy V1.3 from 2. September 2016
Отчёт EAC об извлечении, выполненном 4. декабря 2018, 10:30
Виктор Королев / На сердце белыми нитями
Дисковод: ASUS DRW-24F1MT Adapter: 1 ID: 0
Режим чтения : Достоверность
Использование точного потока : Да
Отключение кэша аудио : Да
Использование указателей C2 : Нет
Коррекция смещения при чтении : 6
Способность читать области Lead-in и Lead-out : Нет
Заполнение пропущенных сэмплов тишиной : Да
Удаление блоков с тишиной в начале и конце : Нет
При вычислениях CRC использовались нулевые сэмплы : Да
Интерфейс : Встроенный Win32-интерфейс для Win NT/2000
Выходной формат : Пользовательский кодировщик
Выбранный битрейт : 128 kBit/s
Качество : Высокий
Добавление ID3-тега : Нет
Утилита сжатия : C:\Program Files (x86)\Exact Audio Copy\Flac\flac.exe
Дополнительные параметры : -V -8 -T "Date=%year%" -T "Genre=%genre%" %source%
TOC извлечённого CD
Трек | Старт | Длительность | Начальный сектор | Конечный сектор
---------------------------------------------------------------------
1 | 0:00.00 | 5:13.57 | 0 | 23531
2 | 5:13.57 | 4:17.43 | 23532 | 42849
3 | 9:31.25 | 4:07.12 | 42850 | 61386
4 | 13:38.37 | 4:18.37 | 61387 | 80773
5 | 17:56.74 | 3:53.41 | 80774 | 98289
6 | 21:50.40 | 4:23.64 | 98290 | 118078
7 | 26:14.29 | 4:31.06 | 118079 | 138409
8 | 30:45.35 | 4:04.43 | 138410 | 156752
9 | 34:50.03 | 4:05.15 | 156753 | 175142
10 | 38:55.18 | 4:08.67 | 175143 | 193809
11 | 43:04.10 | 3:24.12 | 193810 | 209121
12 | 46:28.22 | 4:16.74 | 209122 | 228395
13 | 50:45.21 | 4:38.55 | 228396 | 249300
14 | 55:24.01 | 4:29.25 | 249301 | 269500
Характеристики диапазона извлечения и сообщения об ошибках
Выбранный диапазон
Имя файла E:\Раздачи\Виктор Королев - На сердце белыми нитями \Виктор Королев - На сердце белыми нитями.wav
Пиковый уровень 99.8 %
Скорость извлечения 2.4 X
Качество диапазона 100.0 %
CRC теста 174C78AA
CRC копии 174C78AA
Копирование... OK
Ошибок не произошло
AccurateRip: сводка
Трек 1 отсутствует в базе данных
Трек 2 отсутствует в базе данных
Трек 3 отсутствует в базе данных
Трек 4 отсутствует в базе данных
Трек 5 отсутствует в базе данных
Трек 6 отсутствует в базе данных
Трек 7 отсутствует в базе данных
Трек 8 отсутствует в базе данных
Трек 9 отсутствует в базе данных
Трек 10 отсутствует в базе данных
Трек 11 отсутствует в базе данных
Трек 12 отсутствует в базе данных
Трек 13 отсутствует в базе данных
Трек 14 отсутствует в базе данных
Ни одного трека нет в базе AccurateRip
Конец отчёта
==== Контрольная сумма отчёта 3D4E11D81A1B567BF40D55C149E1908B88B367DC20E4E3AABA89A665A89633C7 ====

Cue Sheet (.cue):

REM GENRE Chanson
REM DATE 2018
REM DISCID C10E090E
REM COMMENT "ExactAudioCopy v1.3"
PERFORMER "Виктор Королев "
TITLE "На сердце белыми нитями"
REM COMPOSER ""
FILE "Виктор Королев - На сердце белыми нитями.flac" WAVE
TRACK 01 AUDIO
TITLE "Хочу тебя я как весны"
PERFORMER "Виктор Королев"
REM COMPOSER ""
INDEX 01 00:00:00
TRACK 02 AUDIO
TITLE "На сердце белыми нитями"
PERFORMER "Виктор Королев"
REM COMPOSER ""
INDEX 01 05:13:57
TRACK 03 AUDIO
TITLE "Давай под капучино!"
PERFORMER "Виктор Королев"
REM COMPOSER ""
INDEX 01 09:31:25
TRACK 04 AUDIO
TITLE "Миллион"
PERFORMER "Виктор Королев"
REM COMPOSER ""
INDEX 01 13:38:37
TRACK 05 AUDIO
TITLE "Вишенка на торте"
PERFORMER "Виктор Королев"
REM COMPOSER ""
INDEX 01 17:56:74
TRACK 06 AUDIO
TITLE "Стервочка моя"
PERFORMER "Виктор Королев"
REM COMPOSER ""
INDEX 01 21:50:40
TRACK 07 AUDIO
TITLE "Дай мне слово"
PERFORMER "Виктор Королев"
REM COMPOSER ""
INDEX 01 26:14:29
TRACK 08 AUDIO
TITLE "Любовь дороже всего"
PERFORMER "Виктор Королев"
REM COMPOSER ""
INDEX 01 30:45:35
TRACK 09 AUDIO
TITLE "Ты очень красива"
PERFORMER "Виктор Королев"
REM COMPOSER ""
INDEX 01 34:50:03
TRACK 10 AUDIO
TITLE "Букет из белых роз"
PERFORMER "Виктор Королев"
REM COMPOSER ""
INDEX 01 38:55:18
TRACK 11 AUDIO
TITLE "Красивые слова"
PERFORMER "Виктор Королев"
REM COMPOSER ""
INDEX 01 43:04:10
TRACK 12 AUDIO
TITLE "А я зову тебя любимой"
PERFORMER "Виктор Королев"
REM COMPOSER ""
INDEX 01 46:28:22
TRACK 13 AUDIO
TITLE "Я брошу жизнь свою к твоим нога"
PERFORMER "Виктор Королев"
REM COMPOSER ""
INDEX 01 50:45:21
TRACK 14 AUDIO
TITLE "Тонкий лёд"
PERFORMER "Виктор Королев"
REM COMPOSER ""
INDEX 01 55:24:01

Отчёт auCDtect Task manager:

-----------------------
DON'T MODIFY THIS FILE
-----------------------
PERFORMER: auCDtect Task Manager, ver. 1.6.0 RC1 build 1.6.0.1
Copyright (c) 2008-2010 y-soft. All rights reserved
http://y-soft.org
ANALYZER: auCDtect: CD records authenticity detector, version 0.8.2
Copyright (c) 2004 Oleg Berngardt. All rights reserved.
Copyright (c) 2004 Alexander Djourik. All rights reserved.
FILE: Виктор Королев - На сердце белыми нитями.flac
Size: 478883438 Hash: 685FCC54EBD8DDF5BBE4912294FF1764 Accuracy: -m0
Conclusion: CDDA 100%
Signature: 7E50F47AC1249CF0E35CE80260EB0EBDA6D4080E

[Цитировать]



Показать сообщения:    

Текущее время: 13-Дек 11:31

Часовой пояс: UTC + 6


Вы не можете начинать темы
Вы не можете отвечать на сообщения
Вы не можете редактировать свои сообщения
Вы не можете удалять свои сообщения
Вы не можете голосовать в опросах
Вы не можете прикреплять файлы к сообщениям
Вы не можете скачивать файлы

!ВНИМАНИЕ!
Сайт не предоставляет электронные версии произведений, а занимается лишь коллекционированием и каталогизацией ссылок, присылаемых и публикуемых на форуме нашими читателями. Если вы являетесь правообладателем какого-либо представленного материала и не желаете, чтобы ссылка на него находилась в нашем каталоге, свяжитесь с нами, и мы незамедлительно удалим ее. Файлы для обмена на трекере предоставлены пользователями сайта, и администрация не несет ответственности за их содержание. Просьба не заливать файлы, защищенные авторскими правами, а также файлы нелегального содержания!