[ Сегодня идет свободное скачивание без начисления Download ]


Статистика раздачи
Скачал: [ 1 ]
 
   
 
 
 
 
Тёмные отражения / The Darkest Minds / 2018 [4K, HEVC, SDR / BDRip] (2160p) Год выпуска: 2018
Жанр: Фантастика, триллер
Выпущено: США, 21 Laps Entertainment
Режиссер: Дженнифер Ю
Продолжительность: 01:43:47
Перевод: Дублированный
Субтитры: Русские, английские, украинские
возраст 12+
В ролях: Брэдли Уитфорд, Мэнди Мур, Амандла Стенберг, Гвендолин Кристи, Харрис Дикинсон, Марк О'Брайэн, Уоллес Лэнгэм, Патрик Гибсон, Уэйд Уильямс, Голден Брукс, Мия Чех, Скайлан Брукс

О фильме:
События фильма «Тёмные отражения» разворачиваются в тот момент, когда в мире начинает бушевать загадочная эпидемия. Лучшие американские врачи бросают все свои исследования и приступают к созданию сыворотки. Однако каждый день промедления приводит к гибели тысяч детей. А спустя некоторое время становится известно, что распространение болезни нельзя остановить. В результате она убивает практически всех детей по всей стране. Остается лишь два процента выживших. Ученые, пытаясь понять сущность происходящих явлений, начинают замечать, что у выживших детей начинают развиваться нечеловеческие способности. Они становятся настолько сильными, что правительство, боясь влияния сверхлюдей, решает отправить всех детей и подростков в специальные учреждения, где их силы будут контролироваться. В центре сюжета фильма «Тёмные отражения» находится шестнадцатилетняя девушка по имени Руби. Она получает возможность сбежать из правительственной колонии. Воспользовавшись шансом, девушка присоединяется к группе беглых подростков.
ТЁМНЫЕ ОТРАЖЕНИЯ Трейлер русский | Фильм 2018
Техданные
Качество: BDRip (2160p)
Видео: HEVC, 22900 Кбит/c, 3840x1608, 23.976 кадр/с, 10 bit
Аудио: Русский (DTS, 6 ch, 768 Кбит/с), (AC3, 6 ch, 448 Кбит/с), украинский, английский (AC3, 6 ch, 448 Кбит/с)

Релиз

Мастер 5
MPEG-H HEVC Video 22900 kbps 2160p / 23.976 fps / 16: 9 / Main 10 Профиль 5.1 High / 4: 2: 0/10 бит / SDR / BT.709 /
Источник: http://ironcityarena.com/viewtopic.php?t=129430 _Converted из 10-битного HDR в 10 бит SDR
Профиль формата: Main 10@L5.1@High_10 ми-битный SDR
Аудио #1: 48 kHz, DTS Dolby Digital, 3/2 (L,C,R,l,r) + LFE ch, 768.00 kbps avg | RUS (Лицензия)
Аудио #2: 48 kHz, AC3 Dolby Digital, 3/2 (L,C,R,l,r) + LFE ch, 448.00 kbps avg | RUS (Лицензия)
Аудио #3: 48 kHz, AC3 Dolby Digital, 3/2 (L,C,R,l,r) + LFE ch, 448.00 kbps avg | UKR (Лицензия)
Аудио #4: 48 kHz, AC3 Dolby Digital, 3/2 (L,C,R,l,r) + LFE ch, 448.00 kbps avg | ENG (Оригинал)
Субтитры: Русские (форс., полные), Украинские (форс., полные), Английские (полные, SDH

MediaInfo:

Общее
Уникальный идентификатор : 218849629321396212547617953289673329124 (0xA4A4E7CB19A390C0A8046F4669EF49E4)
Полное имя : F:\The.Darkest.Minds.2018.2160p.BluRay.x265.10bit.SDR.Master5.mkv
Формат : Matroska
Версия формата : Version 4
Размер файла : 18,2 Гбайт
Продолжительность : 1 ч. 43 м.
Общий поток : 25,1 Мбит/сек
Название фильма : The.Darkest.Minds.2018.2160p.BluRay.x265.10bit.SDR.Master5
Дата кодирования : UTC 2018-11-30 22:51:59
Программа кодирования : mkvmerge v7.9.0 ('Birds') 64bit
Библиотека кодирования : libebml v1.3.1 + libmatroska v1.4.2
Обложка : Yes
Attachments : small_cover.jpg / small_cover_land.jpg / cover.jpg / cover_land.jpg
Видео
Идентификатор : 1
Формат : HEVC
Формат/Информация : High Efficiency Video Coding
Профиль формата : Main 10@L5.1@High
Идентификатор кодека : V_MPEGH/ISO/HEVC
Продолжительность : 1 ч. 43 м.
Битрейт : 22,9 Мбит/сек
Ширина : 3840 пикселей
Высота : 1608 пикселей
Соотношение сторон : 2,40:1
Режим частоты кадров : Постоянный
Частота кадров : 23,976 (24000/1001) кадра/сек
Цветовое пространство : YUV
Субдискретизация насыщенности : 4:2:0
Битовая глубина : 10 бит
Бит/(Пиксели*Кадры) : 0.155
Размер потока : 16,6 Гбайт (92%)
Заголовок : The.Darkest.Minds.2018.2160p.BluRay.x265.10bit.SDR.Master5
Библиотека кодирования : x265 2.8+54-79c76e42cb28:[Windows][GCC 7.3.1][64 bit] 10bit
Настройки программы : cpuid=1111039 / frame-threads=16 / numa-pools=20 / wpp / no-pmode / no-pme / no-psnr / no-ssim / log-level=2 / input-csp=1 / input-res=3840x1608 / interlace=0 / total-frames=0 / level-idc=51 / high-tier=1 / uhd-bd=0 / ref=3 / no-allow-non-conformance / repeat-headers / annexb / aud / hrd / info / hash=0 / no-temporal-layers / no-open-gop / min-keyint=1 / keyint=24 / gop-lookahead=0 / bframes=4 / b-adapt=2 / b-pyramid / bframe-bias=0 / rc-lookahead=25 / lookahead-slices=4 / scenecut=40 / radl=0 / no-intra-refresh / ctu=64 / min-cu-size=8 / no-rect / no-amp / max-tu-size=32 / tu-inter-depth=1 / tu-intra-depth=1 / limit-tu=0 / rdoq-level=0 / dynamic-rd=0.00 / no-ssim-rd / signhide / no-tskip / nr-intra=0 / nr-inter=0 / no-constrained-intra / strong-intra-smoothing / max-merge=2 / limit-refs=3 / no-limit-modes / me=1 / subme=2 / merange=57 / temporal-mvp / weightp / no-weightb / no-analyze-src-pics / deblock=0:0 / no-sao / no-sao-non-deblock / rd=3 / no-early-skip / rskip / no-fast-intra / no-tskip-fast / no-cu-lossless / no-b-intra / no-splitrd-skip / rdpenalty=0 / psy-rd=2.00 / psy-rdoq=0.00 / no-rd-refine / no-lossless / cbqpoffs=0 / crqpoffs=0 / rc=crf / crf=16.0 / qcomp=0.60 / qpstep=4 / stats-write=0 / stats-read=0 / vbv-maxrate=160000 / vbv-bufsize=160000 / vbv-init=0.9 / crf-max=0.0 / crf-min=0.0 / ipratio=1.40 / pbratio=1.30 / aq-mode=1 / aq-strength=1.00 / cutree / zone-count=0 / no-strict-cbr / qg-size=32 / no-rc-grain / qpmax=69 / qpmin=0 / no-const-vbv / sar=1 / overscan=0 / videoformat=5 / range=0 / colorprim=2 / transfer=2 / colormatrix=2 / chromaloc=0 / display-window=0 / max-cll=0,0 / min-luma=0 / max-luma=1023 / log2-max-poc-lsb=8 / vui-timing-info / vui-hrd-info / slices=1 / opt-qp-pps / opt-ref-list-length-pps / no-multi-pass-opt-rps / scenecut-bias=0.05 / no-opt-cu-delta-qp / no-aq-motion / no-hdr / no-hdr-opt / no-dhdr10-opt / no-idr-recovery-sei / analysis-reuse-level=5 / scale-factor=0 / refine-intra=0 / refine-inter=0 / refine-mv=0 / no-limit-sao / ctu-info=0 / no-lowpass-dct / refine-mv-type=0 / copy-pic=1 / max-ausize-factor=1.0 / no-dynamic-refine / no-single-sei
Default : Да
Forced : Нет
Аудио #1
Идентификатор : 2
Формат : DTS
Формат/Информация : Digital Theater Systems
Идентификатор кодека : A_DTS
Продолжительность : 1 ч. 43 м.
Вид битрейта : Постоянный
Битрейт : 768 Кбит/сек
Каналы : 6 каналов
Channel layout : C L R Ls Rs LFE
Частота : 48,0 КГц
Частота кадров : 93,750 кадра/сек (512 SPF)
Битовая глубина : 24 бит
Метод сжатия : С потерями
Размер потока : 570 Мбайт (3%)
Заголовок : Dub License
Язык : Russian
Default : Да
Forced : Да
Аудио #2
Идентификатор : 3
Формат : AC-3
Формат/Информация : Audio Coding 3
Коммерческое название : Dolby Digital
Идентификатор кодека : A_AC3
Продолжительность : 1 ч. 43 м.
Вид битрейта : Постоянный
Битрейт : 448 Кбит/сек
Каналы : 6 каналов
Channel layout : L R C LFE Ls Rs
Частота : 48,0 КГц
Частота кадров : 31,250 кадров/сек (1536 SPF)
Битовая глубина : 16 бит
Метод сжатия : С потерями
Размер потока : 333 Мбайт (2%)
Заголовок : Dub License
Язык : Russian
ServiceKind/String : Complete Main
Default : Нет
Forced : Нет
Аудио #3
Идентификатор : 4
Формат : AC-3
Формат/Информация : Audio Coding 3
Коммерческое название : Dolby Digital
Идентификатор кодека : A_AC3
Продолжительность : 1 ч. 43 м.
Вид битрейта : Постоянный
Битрейт : 448 Кбит/сек
Каналы : 6 каналов
Channel layout : L R C LFE Ls Rs
Частота : 48,0 КГц
Частота кадров : 31,250 кадров/сек (1536 SPF)
Битовая глубина : 16 бит
Метод сжатия : С потерями
Размер потока : 333 Мбайт (2%)
Заголовок : Dub License
Язык : Ukrainian
ServiceKind/String : Complete Main
Default : Нет
Forced : Нет
Аудио #4
Идентификатор : 5
Формат : AC-3
Формат/Информация : Audio Coding 3
Коммерческое название : Dolby Digital
Идентификатор кодека : A_AC3
Продолжительность : 1 ч. 43 м.
Вид битрейта : Постоянный
Битрейт : 448 Кбит/сек
Каналы : 6 каналов
Channel layout : L R C LFE Ls Rs
Частота : 48,0 КГц
Частота кадров : 31,250 кадров/сек (1536 SPF)
Битовая глубина : 16 бит
Метод сжатия : С потерями
Размер потока : 333 Мбайт (2%)
Заголовок : Origina
Язык : English
ServiceKind/String : Complete Main
Default : Нет
Forced : Нет
Текст #1
Идентификатор : 6
Формат : UTF-8
Идентификатор кодека : S_TEXT/UTF8
Идентификатор кодека/Информация : UTF-8 Plain Text
Продолжительность : 1 ч. 40 м.
Битрейт : 0 бит/сек
ElementCount : 14
Размер потока : 512 байт (0%)
Заголовок : Forced
Язык : Russian
Default : Да
Forced : Да
Текст #2
Идентификатор : 7
Формат : UTF-8
Идентификатор кодека : S_TEXT/UTF8
Идентификатор кодека/Информация : UTF-8 Plain Text
Продолжительность : 1 ч. 42 м.
Битрейт : 74 бит/сек
ElementCount : 1288
Размер потока : 56,0 Кбайт (0%)
Заголовок : Full
Язык : Russian
Default : Нет
Forced : Нет
Текст #3
Идентификатор : 8
Формат : UTF-8
Идентификатор кодека : S_TEXT/UTF8
Идентификатор кодека/Информация : UTF-8 Plain Text
Продолжительность : 1 ч. 40 м.
Битрейт : 0 бит/сек
ElementCount : 6
Размер потока : 384 байт (0%)
Заголовок : Forced
Язык : Ukrainian
Default : Нет
Forced : Нет
Текст #4
Идентификатор : 9
Формат : UTF-8
Идентификатор кодека : S_TEXT/UTF8
Идентификатор кодека/Информация : UTF-8 Plain Text
Продолжительность : 1 ч. 42 м.
Битрейт : 73 бит/сек
ElementCount : 1291
Размер потока : 55,0 Кбайт (0%)
Заголовок : Full
Язык : Ukrainian
Default : Нет
Forced : Нет
Текст #5
Идентификатор : 10
Формат : UTF-8
Идентификатор кодека : S_TEXT/UTF8
Идентификатор кодека/Информация : UTF-8 Plain Text
Продолжительность : 1 ч. 42 м.
Битрейт : 49 бит/сек
ElementCount : 1373
Размер потока : 37,2 Кбайт (0%)
Заголовок : Full
Язык : English
Default : Нет
Forced : Нет
Текст #6
Идентификатор : 11
Формат : UTF-8
Идентификатор кодека : S_TEXT/UTF8
Идентификатор кодека/Информация : UTF-8 Plain Text
Продолжительность : 1 ч. 42 м.
Битрейт : 55 бит/сек
ElementCount : 1527
Размер потока : 41,7 Кбайт (0%)
Заголовок : SDH
Язык : English
Default : Нет
Forced : Нет
Меню
00:00:00.000 : en:00:00:00.000
00:03:53.358 : en:00:03:53.358
00:09:40.038 : en:00:09:40.038
00:14:33.748 : en:00:14:33.748
00:19:26.957 : en:00:19:26.957
00:23:35.539 : en:00:23:35.539
00:26:24.166 : en:00:26:24.166
00:30:50.932 : en:00:30:50.932
00:35:35.342 : en:00:35:35.342
00:41:21.562 : en:00:41:21.562
00:47:22.923 : en:00:47:22.923
00:51:48.314 : en:00:51:48.314
00:55:55.227 : en:00:55:55.227
00:59:32.819 : en:00:59:32.819
01:03:33.685 : en:01:03:33.685
01:08:40.616 : en:01:08:40.616
01:12:14.247 : en:01:12:14.247
01:14:11.447 : en:01:14:11.447
01:18:01.802 : en:01:18:01.802
01:20:54.516 : en:01:20:54.516
01:23:28.003 : en:01:23:28.003
01:26:56.878 : en:01:26:56.878
01:29:24.985 : en:01:29:24.985
01:37:59.957 : en:01:37:59.957

Скриншоты

[Цитировать]



Показать сообщения:    

Текущее время: 13-Дек 11:30

Часовой пояс: UTC + 6


Вы не можете начинать темы
Вы не можете отвечать на сообщения
Вы не можете редактировать свои сообщения
Вы не можете удалять свои сообщения
Вы не можете голосовать в опросах
Вы не можете прикреплять файлы к сообщениям
Вы не можете скачивать файлы

!ВНИМАНИЕ!
Сайт не предоставляет электронные версии произведений, а занимается лишь коллекционированием и каталогизацией ссылок, присылаемых и публикуемых на форуме нашими читателями. Если вы являетесь правообладателем какого-либо представленного материала и не желаете, чтобы ссылка на него находилась в нашем каталоге, свяжитесь с нами, и мы незамедлительно удалим ее. Файлы для обмена на трекере предоставлены пользователями сайта, и администрация не несет ответственности за их содержание. Просьба не заливать файлы, защищенные авторскими правами, а также файлы нелегального содержания!