[ Сегодня идет свободное скачивание без начисления Download ]


Статистика раздачи
Скачал: [ 1 ]
 
   
 
 
 
 
Ангелы смерти
Satsuriku no Tenshi / Angels of Death
- Информация
Жанр: триллер, ужасы
Тип: TV-сериал
Продолжительность: 16 эпизодов по 25 минут
Выпуск: c 06.07.2018 по 26.10.2018
Автор: Санада Макото
Режиссер: Судзуки Кэнтаро
Производство: J.C. Staff-Информационные ссылки: AniDB || World Art || MAL || ANN-Релиз подготовлен студией Kansai
Тип озвучки: Многоголосая, закадровая
Описание:
Тринадцатилетняя девочка по имени Рэйчел просыпается в подвале здания, не помня, как она попала туда и не зная причин, по которым оказалась в таком затруднительном положении.
Блуждая по зданию в поисках выхода, девочка встречается с Заком — серийным убийцей с бандажом на лице и косой в руках. Отрешённая и лишённая любых стремлений к жизни, Рэйчел просит нового знакомого убить её. Они заключают контракт, по условиям которого Рэй выводит Зака из здания, а после тот убивает её.
Связь между ними углубляется, усиливаясь их сумасшедшим обещанием.
Как они оказались тут? Для каких целей? Что ждёт их в будущем?
Столкнувшись с неизбежной смертью, герои вместе ищут выход из запечатанного здания!

Качество: WEB-DLRip | Энкод: HorribleSubs
Язык озвучки: Японский и Русский
Файл
Формат: MKV
Видео: x264, 1920x1080, ~4 585 kbps, 23.976 fps
Аудио 1: AAC, 192 kbps, 48.0 kHz, 2 ch RUS
Аудио 2: AAC, 128 kbps, 44.1 kHz, 2 ch JPN
-

Список эпизодов:

01. Kill Me... Please.
02. Your Grave Is Not Here.
03. I Swear to God.
04. A Sinner Has No Right of Choice.
05. Don`t Let Me Kill You Just Yet.
06. Zack Is the Only One Who Can Kill Me.
07. Who Are You?
08. Yeah..., I`m a Monster.
09. There Is No God in This World.
10. The Witch Trial Shall Start.
11. `Cause You Are My God, Zack.
12. Try to Know Everything About Her.
13. I`m Not Your God.
14. Swear You Will Be Killed by Me.
15. A Vow Cannot Be Stolen.
16. Stop Crying and Smile.

Тех. параметры:

General
Unique ID : 21830177646202455106701490255466477903 (0x106C56DB2F97289F0A7EB5A26A42394F)
Complete name : Satsuriku no Tenshi [KANSAI]\Satsuriku no Tenshi - 01 [1080p].mkv
Format : Matroska
Format version : Version 4
File size : 830 MiB
Duration : 23 min 40 s
Overall bit rate : 4 905 kb/s
Encoded date : UTC 2018-11-04 12:35:57
Writing application : mkvmerge v28.2.0 ('The Awakening') 64-bit
Writing library : libebml v1.3.6 + libmatroska v1.4.9
Video
ID : 1
Format : AVC
Format/Info : Advanced Video Codec
Format profile : High@L4
Format settings : CABAC / 4 Ref Frames
Format settings, CABAC : Yes
Format settings, ReFrames : 4 frames
Codec ID : V_MPEG4/ISO/AVC
Duration : 23 min 40 s
Bit rate : 4 585 kb/s
Width : 1 920 pixels
Height : 1 080 pixels
Display aspect ratio : 16:9
Frame rate mode : Constant
Frame rate : 23.976 (24000/1001) FPS
Color space : YUV
Chroma subsampling : 4:2:0
Bit depth : 8 bits
Scan type : Progressive
Bits/(Pixel*Frame) : 0.092
Stream size : 776 MiB (93%)
Writing library : x264 core 142
Encoding settings : cabac=1 / ref=4 / deblock=1:1:1 / analyse=0x3:0x113 / me=umh / subme=8 / psy=1 / psy_rd=0.40:0.00 / mixed_ref=1 / me_range=16 / chroma_me=1 / trellis=1 / 8x8dct=1 / cqm=0 / deadzone=21,11 / fast_pskip=1 / chroma_qp_offset=-2 / threads=12 / lookahead_threads=2 / sliced_threads=0 / nr=0 / decimate=1 / interlaced=0 / bluray_compat=0 / constrained_intra=0 / bframes=3 / b_pyramid=2 / b_adapt=2 / b_bias=0 / direct=3 / weightb=1 / open_gop=0 / weightp=2 / keyint=48 / keyint_min=24 / scenecut=40 / intra_refresh=0 / rc_lookahead=48 / rc=crf / mbtree=1 / crf=15.0 / qcomp=0.60 / qpmin=0 / qpmax=69 / qpstep=4 / vbv_maxrate=8000 / vbv_bufsize=12000 / crf_max=0.0 / nal_hrd=none / filler=0 / ip_ratio=1.40 / aq=1:0.60
Default : Yes
Forced : No
Audio #1
ID : 2
Format : AAC LC
Format/Info : Advanced Audio Codec Low Complexity
Codec ID : A_AAC-2
Duration : 23 min 40 s
Bit rate : 192 kb/s
Channel(s) : 2 channels
Channel layout : L R
Sampling rate : 48.0 kHz
Frame rate : 46.875 FPS (1024 SPF)
Compression mode : Lossy
Delay relative to video : -83 ms
Stream size : 32.1 MiB (4%)
Language : Russian
Default : Yes
Forced : No
Audio #2
ID : 3
Format : AAC LC
Format/Info : Advanced Audio Codec Low Complexity
Codec ID : A_AAC-2
Duration : 23 min 40 s
Bit rate : 128 kb/s
Channel(s) : 2 channels
Channel layout : L R
Sampling rate : 44.1 kHz
Frame rate : 43.066 FPS (1024 SPF)
Compression mode : Lossy
Delay relative to video : -83 ms
Stream size : 21.7 MiB (3%)
Language : Japanese
Default : No
Forced : No

Скриншоты

[Цитировать]



Показать сообщения:    

Текущее время: 21-Ноя 17:03

Часовой пояс: UTC + 6


Вы не можете начинать темы
Вы не можете отвечать на сообщения
Вы не можете редактировать свои сообщения
Вы не можете удалять свои сообщения
Вы не можете голосовать в опросах
Вы не можете прикреплять файлы к сообщениям
Вы не можете скачивать файлы

!ВНИМАНИЕ!
Сайт не предоставляет электронные версии произведений, а занимается лишь коллекционированием и каталогизацией ссылок, присылаемых и публикуемых на форуме нашими читателями. Если вы являетесь правообладателем какого-либо представленного материала и не желаете, чтобы ссылка на него находилась в нашем каталоге, свяжитесь с нами, и мы незамедлительно удалим ее. Файлы для обмена на трекере предоставлены пользователями сайта, и администрация не несет ответственности за их содержание. Просьба не заливать файлы, защищенные авторскими правами, а также файлы нелегального содержания!