[ Сегодня идет свободное скачивание без начисления Download ]


Статистика раздачи
Скачал: [ 8 ]
 
   
 
 
 
 
Давай сделаем это по-быстрому / The Quickie (2001) DVDRip-AVC Информация о фильме
Название: Давай сделаем это по-быстрому
Оригинальное название: The Quickie
Год выхода: 2001
Жанр: Драма, криминал
Режиссер: Сергей Бодров-ст.
В ролях: Владимир Машков, Дженнифер Джейсон Ли, Дин Стокуэлл, Лесли Энн Уоррен, Сергей Бодров мл., Генри Томас, Джейсу Гарсия, Бренда Бакки, Евгений Лазарев, Олег Тактаров, Уилл Кеппер, Рэнди Лауэлл, Керри Джонстон, Джойс Гай, Наталия Крюкова, Расти Флуд, Дэннис Бендерски, Джоэль Хейман, Эшлинн Роуз, Джулианн Стегер, Ричард Файр, Хуан Карлос Канту, Кевин Бриф, Бэйли Томпсон, Илья Волох, Джон Брэдфорд Пагано, Шон Сиберг
О фильме :
Казалось бы, что еще нужно человеку для счастья? Власть, деньги, внимание женщин, здоровье - все это у Олега присутствует в большом, даже огромном количестве. Его уважают, боятся, называют “крестным отцом”, от его слова зависят судьбы многих людей. За его спиной всегда “приглядывает” надежный телохранитель. Его состояние исчисляется десятками, а может и сотнями миллионов долларов. Безумные вечеринки с шикарными проститутками, игрой в “русскую рулетку” и швырянием пачек наличных – он устал от такой жизни, устал от своего слишком опасного бизнеса. Он хочет отойти от дел, но российских партнеров такой расклад явно не устраивает, и это грозит ему очень серьезными последствиями…

Выпущено: Франция, Великобритания, Германия
Продолжительность: 01:35:14
Перевод: Профессиональный (многоголосый, закадровый)
Файл
Формат: MKV
Качество: DVDRip-AVC
Видео: MPEG-4 AVC, 720x440, ~ 1018 Кбит/с
Аудио: AAC-HE, 2 ch, ~ 76 Кбит/с
Субтитры: Нет

MI

Общее
Уникальный идентификатор : 215289066879609211692194164903153182529 (0xA1F72A82ECE4E3DF90276D35717B2741)
Полное имя : D:MOVIESThe Quickie.2001.DVDRip-AVC.ExKinoRay.mkv
Формат : Matroska
Версия формата : Version 4 / Version 2
Размер файла : 746 Мбайт
Продолжительность : 1 ч. 35 м.
Общий поток : 1095 Кбит/сек
Дата кодирования : UTC 2018-09-27 17:40:10
Программа кодирования : mkvmerge v15.0.0 ('Duel with the Devil') 64-bit
Библиотека кодирования : libebml v1.3.5 + libmatroska v1.4.5
Видео
Идентификатор : 1
Формат : AVC
Формат/Информация : Advanced Video Codec
Профиль формата : High@L4.1
Параметр CABAC формата : Да
Параметр RefFrames формата : 12 кадров
Идентификатор кодека : V_MPEG4/ISO/AVC
Продолжительность : 1 ч. 35 м.
Битрейт : 1018 Кбит/сек
Ширина : 720 пикселей
Высота : 440 пикселей
Соотношение сторон : 16:10
Режим частоты кадров : Постоянный
Частота кадров : 25,000 кадров/сек
Цветовое пространство : YUV
Субдискретизация насыщенности : 4:2:0
Битовая глубина : 8 бит
Тип развёртки : Прогрессивная
Бит/(Пиксели*Кадры) : 0.129
Размер потока : 693 Мбайт (93%)
Библиотека кодирования : x264 core 152 r2851 ba24899
Настройки программы : cabac=1 / ref=12 / deblock=1:-3:-3 / analyse=0x3:0x133 / me=umh / subme=10 / psy=1 / psy_rd=1.00:0.15 / mixed_ref=1 / me_range=32 / chroma_me=1 / trellis=2 / 8x8dct=1 / cqm=0 / deadzone=21,11 / fast_pskip=0 / chroma_qp_offset=-3 / threads=6 / lookahead_threads=1 / sliced_threads=0 / nr=0 / decimate=0 / interlaced=0 / bluray_compat=0 / constrained_intra=0 / bframes=11 / b_pyramid=2 / b_adapt=2 / b_bias=0 / direct=3 / weightb=1 / open_gop=0 / weightp=2 / keyint=250 / keyint_min=24 / scenecut=40 / intra_refresh=0 / rc=2pass / mbtree=0 / bitrate=1018 / ratetol=1.0 / qcomp=0.60 / qpmin=0 / qpmax=69 / qpstep=4 / cplxblur=20.0 / qblur=0.5 / ip_ratio=1.40 / pb_ratio=1.30 / aq=1:1.00
Default : Да
Forced : Нет
Аудио
Идентификатор : 2
Формат : AAC
Формат/Информация : Advanced Audio Codec
Профиль формата : HE-AAC / LC
Идентификатор кодека : A_AAC
Продолжительность : 1 ч. 35 м.
Битрейт : 76,0 Кбит/сек
Каналы : 2 канала
Расположение каналов : Front: L R
Частота : 48,0 КГц / 24,0 КГц
Частота кадров : 23,438 кадра/сек (1024 SPF)
Метод сжатия : С потерями
Задержка видео : 231 мс.
Размер потока : 51,8 Мбайт (7%)
Default : Да
Forced : Нет

Скриншоты

[Цитировать]



Показать сообщения:    

Текущее время: 16-Дек 17:55

Часовой пояс: UTC + 6


Вы не можете начинать темы
Вы не можете отвечать на сообщения
Вы не можете редактировать свои сообщения
Вы не можете удалять свои сообщения
Вы не можете голосовать в опросах
Вы не можете прикреплять файлы к сообщениям
Вы не можете скачивать файлы

!ВНИМАНИЕ!
Сайт не предоставляет электронные версии произведений, а занимается лишь коллекционированием и каталогизацией ссылок, присылаемых и публикуемых на форуме нашими читателями. Если вы являетесь правообладателем какого-либо представленного материала и не желаете, чтобы ссылка на него находилась в нашем каталоге, свяжитесь с нами, и мы незамедлительно удалим ее. Файлы для обмена на трекере предоставлены пользователями сайта, и администрация не несет ответственности за их содержание. Просьба не заливать файлы, защищенные авторскими правами, а также файлы нелегального содержания!