[ Сегодня идет свободное скачивание без начисления Download ]


Статистика раздачи
Нет
 
   
 
 
 
 
Приманка / Primal (2010) BDRip-AVC Информация о фильме
Название: Приманка
Оригинальное название: Primal
Год выхода: 2010
Жанр: Ужасы, триллер
Режиссер: Джош Рид
В ролях: Зои Таквелл-Смит, Крю Бойлэн, Линдсэй Фаррис, Ребека Фурд, Дэмиен Фрилигус, Уил Трэвэл, Марк Саундерс, Валангари Карнтаварра Якамарра, Стефен Шэнэхэн, Ческа Кьюба де Рид
О фильме: Пятеро друзей путешествуя встречают студента-антрополога Дэйса изучающего древние наскальные рисунки. Дело принимает опасный оборот, когда одна из девушек после того как искупалась в местном водопаде, начинает медленно сходить с ума и возвращаться в первобытное состояние. Ее бьет лихорадка, тело начинает кровоточить, рассудок помутнен. Вскоре и с ней начинают происходить изменения. Она превращается в хищника и начинает охоту на своих друзей. От такого опасного противника не убежать, не скрыться. Молодые люди принимают бой, только ряды противника постоянно пополняют сами же люди…

Выпущено: Австралия, Primal Films, AV Pictures
Продолжительность: 01:23:49
Перевод: Профессиональный (многоголосый, закадровый) ТВ3
Файл
Кодек: H.264
Качество: BDRip (AVC)
Видео: MPEG-4 AVC, 1172 Кбит/с, 720x306
Звук: Русский (AAC, 2 ch, 72 Кбит/с)

MediaInfo

Формат : Matroska
Версия формата : Version 4 / Version 2
Размер файла : 746 Мбайт
Продолжительность : 1 ч. 23 м.
Общий поток : 1245 Кбит/сек
Название фильма : Primal.2010.x264.BDRip.(AVC).ExKinoRay
Дата кодирования : UTC 2018-03-24 09:20:24
Программа кодирования : mkvmerge v17.0.0 ('Be Ur Friend') 64-bit
Библиотека кодирования : libebml v1.3.5 + libmatroska v1.4.8
Видео
Идентификатор : 1
Формат : AVC
Формат/Информация : Advanced Video Codec
Профиль формата : High@L4.1
Параметр CABAC формата : Да
Параметр ReFrames формата : 10 кадров
Идентификатор кодека : V_MPEG4/ISO/AVC
Продолжительность : 1 ч. 23 м.
Битрейт : 1172 Кбит/сек
Ширина : 720 пикселей
Высота : 306 пикселей
Соотношение сторон : 2,35:1
Режим частоты кадров : Постоянный
Частота кадров : 24,000 кадра/сек
Цветовое пространство : YUV
Субдискретизация насыщенности : 4:2:0
Битовая глубина : 8 бит
Тип развёртки : Прогрессивная
Бит/(Пиксели*Кадры) : 0.222
Размер потока : 702 Мбайт (94%)
Заголовок : ExKinoRay
Библиотека кодирования : x264 core 146 r2538 121396c
Настройки программы : cabac=1 / ref=10 / deblock=1:-2:-2 / analyse=0x3:0x113 / me=umh / subme=11 / psy=1 / psy_rd=1.00:0.00 / mixed_ref=1 / me_range=32 / chroma_me=1 / trellis=2 / 8x8dct=1 / cqm=0 / deadzone=21,11 / fast_pskip=0 / chroma_qp_offset=-3 / threads=6 / lookahead_threads=1 / sliced_threads=0 / nr=0 / decimate=0 / interlaced=0 / bluray_compat=0 / constrained_intra=0 / bframes=10 / b_pyramid=2 / b_adapt=2 / b_bias=0 / direct=3 / weightb=1 / open_gop=0 / weightp=2 / keyint=240 / keyint_min=23 / scenecut=40 / intra_refresh=0 / rc_lookahead=40 / rc=2pass / mbtree=0 / bitrate=1172 / ratetol=1.0 / qcomp=0.60 / qpmin=0 / qpmax=51 / qpstep=4 / cplxblur=20.0 / qblur=0.5 / vbv_maxrate=50000 / vbv_bufsize=62500 / nal_hrd=none / filler=0 / ip_ratio=1.40 / pb_ratio=1.30 / aq=2:1.00
Язык : English
Default : Да
Forced : Нет
Аудио
Идентификатор : 2
Формат : AAC
Формат/Информация : Advanced Audio Codec
Профиль формата : LC
Идентификатор кодека : A_AAC
Продолжительность : 1 ч. 23 м.
Битрейт : 72,0 Кбит/сек
Каналы : 2 канала
Расположение каналов : Front: L R
Частота : 48,0 КГц
Частота кадров : 46,875 кадров/сек (1024 spf)
Метод сжатия : С потерями
Задержка видео : 9 мс.
Размер потока : 43,2 Мбайт (6%)
Язык : Russian
Default : Да
Forced : Нет
Меню
00:00:00.000 : en:00:00:00.000
00:02:43.375 : en:00:02:43.375
00:06:38.625 : en:00:06:38.625
00:11:13.625 : en:00:11:13.625
00:16:32.792 : en:00:16:32.792
00:24:07.167 : en:00:24:07.167
00:30:16.167 : en:00:30:16.167
00:34:28.333 : en:00:34:28.333
00:40:56.875 : en:00:40:56.875
00:44:31.625 : en:00:44:31.625
00:48:08.083 : en:00:48:08.083
00:54:53.875 : en:00:54:53.875
01:00:03.042 : en:01:00:03.042
01:02:51.708 : en:01:02:51.708
01:05:47.542 : en:01:05:47.542
01:11:06.917 : en:01:11:06.917
01:15:13.708 : en:01:15:13.708
01:18:44.542 : en:01:18:44.542

Скриншоты


[Цитировать]

гавно сайт где раздающий?напрасно регистрировался щас отпишусь и удалю

[Цитировать]



Показать сообщения:    

Текущее время: 13-Дек 11:32

Часовой пояс: UTC + 6


Вы не можете начинать темы
Вы не можете отвечать на сообщения
Вы не можете редактировать свои сообщения
Вы не можете удалять свои сообщения
Вы не можете голосовать в опросах
Вы не можете прикреплять файлы к сообщениям
Вы не можете скачивать файлы

!ВНИМАНИЕ!
Сайт не предоставляет электронные версии произведений, а занимается лишь коллекционированием и каталогизацией ссылок, присылаемых и публикуемых на форуме нашими читателями. Если вы являетесь правообладателем какого-либо представленного материала и не желаете, чтобы ссылка на него находилась в нашем каталоге, свяжитесь с нами, и мы незамедлительно удалим ее. Файлы для обмена на трекере предоставлены пользователями сайта, и администрация не несет ответственности за их содержание. Просьба не заливать файлы, защищенные авторскими правами, а также файлы нелегального содержания!