[ Сегодня идет свободное скачивание без начисления Download ]


Статистика раздачи
Нет
 
   
 
 
 
 
Сделано в СССР (серии 1-16 из 16) (2011) WEB-DL 720p «Навсегда останется в памяти»- Производство: Россия / Всемирные Русские Студии
Жанр: драма
Режиссер: Вадим Островский
Актеры: Борис Галкин, Нина Усатова, Дмитрий Орлов, Иван Жидков, Мария Шукшина, Александр Зельский, Даниил Спиваковский, Константин Лавроненко, Анна Яновская, Агния Кузнецова, Анна Носатова и др.
Описание:
Глава семейства, Иван Шишов, пережил коллективизацию, голод, раскулачивание, войну. Воевал в танковых войсках, дважды горел, но выжил.
У Ивана и его жены Марьи трое детей, дочь и два сына: Татьяна, Григорий и Андрей. Дети выросли и разъехались, а старшие Шишовы одни доживают свой век в деревенском доме. Начало повествования приходится на драматичный момент жизни Ивана и Марьи: их село обречено, на его месте будет построено водохранилище новой гидростанции. Дочь забирает родителей к себе в город, но это только начало новых проблем.

Возраст: 16+ (зрителям, достигшим 16 лет)
Продолжительность: ~00:43:00 серия
Качество видео: WEB-DL
Видео: AVC/H.264, 1280x720 (16:9), ~2167 Kbps
Аудио: AC3, 2 ch, 192 Kbps

Mediainfo:

Общее
Уникальный идентификатор : 188289664377275326806360525423558835700 (0x8DA7453159C69958EBA006268B50BDF4)
Полное имя : D:\Сделано в СССР (2011)\Серия 01.mkv
Формат : Matroska
Версия формата : Version 4 / Version 2
Размер файла : 763 Мбайт
Продолжительность : 44 м. 20 с.
Общий поток : 2407 Кбит/сек
Программа кодирования : Lavf57.25.100
Библиотека кодирования : Lavf57.25.100
Видео
Идентификатор : 1
Формат : AVC
Формат/Информация : Advanced Video Codec
Профиль формата : High@L3.1
Параметр CABAC формата : Да
Параметр RefFrames формата : 1 кадр
Идентификатор кодека : V_MPEG4/ISO/AVC
Продолжительность : 44 м. 20 с.
Битрейт : 2167 Кбит/сек
Ширина : 1280 пикселей
Высота : 720 пикселей
Соотношение сторон : 16:9
Режим частоты кадров : Постоянный
Частота кадров : 25,000 кадров/сек
Цветовое пространство : YUV
Субдискретизация насыщенности : 4:2:0
Битовая глубина : 8 бит
Тип развёртки : Прогрессивная
Бит/(Пиксели*Кадры) : 0.094
Размер потока : 687 Мбайт (90%)
Default : Да
Forced : Нет
Цветовой диапазон : Limited
Основные цвета : BT.709
Характеристики трансфера : BT.709
Коэффициенты матрицы : BT.709
DURATION : 00:44:20.000000000
Аудио
Идентификатор : 2
Формат : AC-3
Формат/Информация : Audio Coding 3
Параметр Endianness формата : Big
Идентификатор кодека : A_AC3
Продолжительность : 44 м. 20 с.
Вид битрейта : Постоянный
Битрейт : 192 Кбит/сек
Каналы : 2 канала
Расположение каналов : Front: L R
Частота : 44,1 КГц
Частота кадров : 28,711 кадров/сек (1536 SPF)
Битовая глубина : 16 бит
Метод сжатия : С потерями
Размер потока : 60,9 Мбайт (8%)
Язык : unknown
ServiceKind/String : Complete Main
Default : Да
Forced : Нет
DURATION : 00:44:19.996000000
Скриншоты:

[Цитировать]

На раздачу встаньте пожалуйста!

[Цитировать]



Показать сообщения:    

Текущее время: 15-Дек 21:26

Часовой пояс: UTC + 6


Вы не можете начинать темы
Вы не можете отвечать на сообщения
Вы не можете редактировать свои сообщения
Вы не можете удалять свои сообщения
Вы не можете голосовать в опросах
Вы не можете прикреплять файлы к сообщениям
Вы не можете скачивать файлы

!ВНИМАНИЕ!
Сайт не предоставляет электронные версии произведений, а занимается лишь коллекционированием и каталогизацией ссылок, присылаемых и публикуемых на форуме нашими читателями. Если вы являетесь правообладателем какого-либо представленного материала и не желаете, чтобы ссылка на него находилась в нашем каталоге, свяжитесь с нами, и мы незамедлительно удалим ее. Файлы для обмена на трекере предоставлены пользователями сайта, и администрация не несет ответственности за их содержание. Просьба не заливать файлы, защищенные авторскими правами, а также файлы нелегального содержания!